懒猫音乐论坛

 找回密码
 立即注册
搜索
热搜: 活动 交友 discuz
查看: 7|回复: 1

(流行)Taylor Swift - Midnights(2022)(WAV+CUE) 百度云

[复制链接]

43万

主题

43万

帖子

129万

积分

管理员

Rank: 9Rank: 9Rank: 9

积分
1294589
猫币
16 枚
金币
863973 枚
贡献
0 枚
发表于 2022-11-12 07:02:01 | 显示全部楼层 |阅读模式
下载及VIP会员说明:
1、请直接购买VIP会员全站资源无限制下载,不限制下载次数!
2、本站无免费资源,只有VIP会员可全免费下载!(点此24小时自助开通会员!)
3、有任何问题可点此联系客服QQ处理!(客服QQ:13826681,微信:xmvip8)
4、VIP加入QQ会员群及微信会员群(年费及以上会员可联系客服加入会员群!)
专辑:Midnights
歌手:Taylor Swift
流派:POP流行
语言:英语
唱片公司:Taylor Swift

专辑为自购,压缩包有封面,碟片,歌词本的扫描图片。

c4vsykkfz2l.jpg

(流行)Taylor Swift - Midnights(2022)(WAV+CUE) 百度云 百度云,百度,流行, 8629


xelhnmg2eal.jpg

(流行)Taylor Swift - Midnights(2022)(WAV+CUE) 百度云 百度云,百度,流行, 6858


p0i0m3ijled.jpg

(流行)Taylor Swift - Midnights(2022)(WAV+CUE) 百度云 百度云,百度,流行, 5355


zgbgxjjtv0k.jpg

(流行)Taylor Swift - Midnights(2022)(WAV+CUE) 百度云 百度云,百度,流行, 4260


n3ncmfty4rl.jpg

(流行)Taylor Swift - Midnights(2022)(WAV+CUE) 百度云 百度云,百度,流行, 7166



专辑简介:
众望所归 欧美天后 Taylor Swift 第十张个人录音室专辑《Midnights》于2022年10月21日发行,泰勒斯称这张专辑是一场来源于自己美梦和噩梦间的旅行,描述了她13个不眠夜的感受。《Midnights》依旧是由其老友Jack Antonoff参与创作及制作,William Bowery 也参与创作了《Vigilante Shit》和《Sweet Nothing》,更有惊喜邀请Lana Del Rey合作歌曲《Snow on the Beach》。
在专辑发行前的一系列预热中,Taylor Swift本人公布了启发其创作《Midnights》的五个关键词,分别为——Self-loathing(自恨自厌),Fantasizing about revenge(复仇幻想),Wondering what might have(焦虑反复),Falling in love(坠入爱河)和Falling apart (崩溃绝望)。
爱情给了她《Lavender Haze》和《Snow on the Beach》的创作灵感,《Lavender Haze》歌名来自《Mad Men》的启发,在50年代“Lavender Haze”有一层的意思是being in love,歌曲讲述了Taylor恋爱的这六年,如何忽视外界的谣言及看法,保护两人这份弥足珍贵的情感。《Snow on the Beach》则讲述的是当你爱上一个人的同时,发现他也正深爱着你的故事,泰勒斯表示Lana Del Ray是一位非常伟大,值得尊敬的艺术家,可以和她出现在同一时代是一种荣誉与荣幸,是Taylor一生都会感激的事情。首波主打《Anti-Hero》则讲述的是她时长出现的某种不安全感。

专辑曲目:
01. Lavender Haze
02. Maroon
03. Anti-Hero
04. Snow On The Beach
05. You're On Your Own, Kid
06. Midnight Rain
07. Question...?
08. Vigilante Shit
09. Bejeweled
10. Labyrinth
11. Karma
12. Sweet Nothing
13. Mastermind

Exact Audio Copy V1.6 from 23. October 2020
EAC 抓取日志文件从8. 十一月 2022, 12:17
Taylor Swift / Midnights
使用驱动器  :ASUS    SDRW-08D1S-U   Adapter: 1  ID: 0
读取模式      : 可靠Secure
使用精确流     : 是
清空音频缓存    : 是
使用 C2 指示器 : 否
读取偏移校正:               : 0
读取 Lead-In 和 Lead-Out : 否
用静音填充抓取中丢失偏移的采样       : 是
去除首尾静音块               : 否
在CRC 计算中使用了空样本       : 是
已用接口                  : Win NT 及 2000 本地 Win32 接口
所用输出模式: : 内部 WAV 函数
样本格式    : 44.100 Hz; 16 Bit; 立体声

已抓取 CD 的 TOC
     音轨 |    起始    |    长度    |  起始扇区  |  结束扇区  
    --------------------------------------------
      1 |  0:00.00 |  3:22.29 |      0 |  15178
      2 |  3:22.29 |  3:38.21 |  15179 |  31549
      3 |  7:00.50 |  3:20.51 |  31550 |  46600
      4 | 10:21.26 |  4:16.10 |  46601 |  65810
      5 | 14:37.36 |  3:14.15 |  65811 |  80375
      6 | 17:51.51 |  2:54.59 |  80376 |  93484
      7 | 20:46.35 |  3:30.42 |  93485 | 109276
      8 | 24:17.02 |  2:44.60 | 109277 | 121636
      9 | 27:01.62 |  3:14.12 | 121637 | 136198
     10 | 30:15.74 |  4:07.72 | 136199 | 154795
     11 | 34:23.71 |  3:24.64 | 154796 | 170159
     12 | 37:48.60 |  3:08.37 | 170160 | 184296
     13 | 40:57.22 |  3:11.04 | 184297 | 198625

范围状态及错误
已选择范围
     文件名 C:\Users\12751\Desktop\Taylor Swift - Midnights.wav
     峰值电平 100.0 %
     抓取速度 2.0 X
     范围质量 99.9 %
     复制 CRC D3375594
     复制成功
没有错误发生
状态报告结尾
==== 记录校验日志 142C2D1F5351410FFE3598353102CC14B2F70B91E4CC1DB1BC13C9F0570E4ABA ====

专辑为自购,压缩包有封面,碟片,歌词本的扫描图片。

https://link.hhtjim.com/163/14572217.mp4
链接:https://pan.baidu.com/s/1p3Y7i8td3hwsLT3-ShQquQ
游客,如果您要查看本帖隐藏内容请回复
楼主热帖
回复

使用道具 举报

0

主题

163

帖子

349

积分

永久VIP会员

Rank: 10Rank: 10Rank: 10

积分
349
猫币
0 枚
金币
186 枚
贡献
0 枚
发表于 3 天前 | 显示全部楼层
响应国家净网行动,会员回帖内容隐藏不可见!
回复

使用道具 举报

这里是快捷回复,赶紧试试哦: 感谢 支持 不错 无奈 一般 生气 回帖 路过 顶帖
您需要登录后才可以回帖 登录 | 立即注册

本版积分规则

QQ|Archiver|手机版|小黑屋|懒猫音乐论坛 ( 滇ICP备2022007195号 )|网站地图

GMT+8, 2022-11-27 21:16 , Processed in 0.906996 second(s), 33 queries , Gzip On.

Powered by Discuz! X3.4

Copyright © 2001-2020, Tencent Cloud.

快速回复 返回顶部 返回列表