懒猫音乐论坛

 找回密码
 立即注册
搜索
热搜: 活动 交友 discuz
查看: 29|回复: 0

(华语流行)绝对80后回忆杀《戏说乾隆/还珠格格/婉君/雪山飞狐/济公/小龙人》(6TP-APE/WAV/百度)

[复制链接]

43万

主题

43万

帖子

129万

积分

管理员

Rank: 9Rank: 9Rank: 9

积分
1294589
猫币
16 枚
金币
863973 枚
贡献
0 枚
发表于 4 天前 | 显示全部楼层 |阅读模式
下载及VIP会员说明:
1、请直接购买VIP会员全站资源无限制下载,不限制下载次数!
2、本站无免费资源,只有VIP会员可全免费下载!(点此24小时自助开通会员!)
3、有任何问题可点此联系客服QQ处理!(客服QQ:13826681,微信:xmvip8)
4、VIP加入QQ会员群及微信会员群(年费及以上会员可联系客服加入会员群!)

v1p0v113bxw.jpg

(华语流行)绝对80后回忆杀《戏说乾隆/还珠格格/婉君/雪山飞狐/济公/小龙人》(6TP-APE/WAV/百度) 华语,华语流行,流行,绝对,回忆, 6100

江西文化音像出版社出版
演唱;潘莉 蔡幸娟 王杰
A面
A1 谈笑一生
A2 呛姑娘
A3 问情
A4 来生再续缘
A5 眷恋
A6 戏说人生
B面
B1 你是我心底打烙印
B2 我心已许
B3 新鸳鸯蝴蝶梦
B4 包青天
B5 黄昏
B6 梅花三弄
电视剧歌曲合辑 - 还珠格格
FILE "电视剧歌曲合辑 - 还珠格格.ape" WAVE
  TRACK 01 AUDIO
    TITLE "A-01 雨 蝶       电视剧《还珠格格》主题曲"
    INDEX 01 00:00:00
  TRACK 02 AUDIO
    TITLE "A-02 当          电视剧《还珠格格》片尾曲"
    INDEX 01 03:49:34
  TRACK 03 AUDIO
    TITLE "A-03 困 砂       电视剧《苍天有泪》主题曲"
    INDEX 01 08:29:12
  TRACK 04 AUDIO
    TITLE "A-04 痛          电视剧《苍天有泪》主题曲"
    INDEX 01 12:19:00
  TRACK 05 AUDIO
    TITLE "A-05 归去来      电视剧《新神雕侠女》 主题曲"
    INDEX 01 16:16:03
  TRACK 06 AUDIO
    TITLE "A-06 伤心太平洋  电视剧《新神雕侠女》片尾曲"
    INDEX 01 19:11:40
  TRACK 07 AUDIO
    TITLE "B-01 风 云       电视剧《雄霸天下》主题曲 郑伊健"
    INDEX 01 23:05:18
  TRACK 08 AUDIO
    TITLE "B-02 微 尘       电视剧《真命小和尚》片尾曲 张学友"
    INDEX 01 25:56:31
  TRACK 09 AUDIO
    TITLE "B-03 独角戏      电视剧《真命小和尚》主题曲 许茹云"
    INDEX 01 30:11:31
  TRACK 10 AUDIO
    TITLE "B-04 任逍遥      电视剧《新神雕侠女》插曲 任贤齐"
    INDEX 01 34:22:37
  TRACK 11 AUDIO
    TITLE "B-05 笑看风云    电视剧《笑看风云》主题曲 郑少秋"
    INDEX 01 38:01:16
  TRACK 12 AUDIO
    TITLE "B-06 游龙惊凤    电视剧《游龙惊凤》主题曲 叶凡"
    INDEX 01 41:31:03

021lnt5jsfp.jpg

(华语流行)绝对80后回忆杀《戏说乾隆/还珠格格/婉君/雪山飞狐/济公/小龙人》(6TP-APE/WAV/百度) 华语,华语流行,流行,绝对,回忆, 3932

专辑名称:雪山飞狐
专辑歌手:群星
发行日期:不详
唱片公司:中国扬子江音像出版社出版发行
专辑语言:国语
专辑大小:453MB   
音乐格式:WAV 分轨
磁带编号:Q-201
曲目:
A1.雪中情《雪山飞狐》主题曲
A2.莫让红颜守空尘《雪山飞狐》片尾曲
A3.我有一片心《雪山飞狐》主题插曲
A4.独爱上你或许错《法网柔情》主题曲
A5.一生何求《义不容情》主题歌(粤语版)

B1.雪中情(立体声伴奏带)
B2.莫让红颜守空尘(立体声伴奏带)
B3.我有一片心(立体声伴奏带)
B4.庭院深深《庭院深深》主题曲
B5.一生何求《义不容情》主题歌(国语版)

waf0cl0ui0h.jpg

(华语流行)绝对80后回忆杀《戏说乾隆/还珠格格/婉君/雪山飞狐/济公/小龙人》(6TP-APE/WAV/百度) 华语,华语流行,流行,绝对,回忆, 4500

A
1婉君
2一个女孩
3往事浑如梦
4追寻
5问我
6我的家园
B
1我的家园OK
2问我OK
3追寻OK
4往事浑如梦OK
5一个女孩OK
6婉君OK

3xmicbmrgrc.jpg

(华语流行)绝对80后回忆杀《戏说乾隆/还珠格格/婉君/雪山飞狐/济公/小龙人》(6TP-APE/WAV/百度) 华语,华语流行,流行,绝对,回忆, 1939

一半脸儿《济公》续集主题曲 TP-APE
中国电影出版社上海有声读物公司出版发行
演唱;游本昌 何纪光 蒋大为 刘欢 胡月 孙青
A面
A1 一半脸儿(游本昌 唱)
A2 一半脸儿(儿童 唱)
A3 敢问路在何方
A4 月牙爬上了山
A5 做官难
A6 走西口
A7 山外青山天外天
A8 幸福的日子唱着过
A9 鞋儿破帽儿破(何纪光 唱)
B面
B1 少年壮志不言愁
B2 燃烧吧!火鸟
B3 美丽的风铃花
B4 约会
B5 一根竹竿容易弯
B6 夕阳浪花
B7 辣椒歌
B8 鞋儿破帽儿破(儿童 唱)
B9 一半脸儿(何纪光 唱

spcsvi0w1ms.jpg

(华语流行)绝对80后回忆杀《戏说乾隆/还珠格格/婉君/雪山飞狐/济公/小龙人》(6TP-APE/WAV/百度) 华语,华语流行,流行,绝对,回忆, 4076

a1ss0hwt4sh.jpg

(华语流行)绝对80后回忆杀《戏说乾隆/还珠格格/婉君/雪山飞狐/济公/小龙人》(6TP-APE/WAV/百度) 华语,华语流行,流行,绝对,回忆, 4126

电视连续剧《小龙人》歌曲专辑
出版发行:北京电影学院音像出版社
制作发行:天津音像有限公司
出版年代:1992
编号:M92-004
童声:雨歌
曲目  
A    小演员献给观众的话
1小龙人之歌(原音正版)
2我是一条小青龙(原间正版)
3为了妈妈(原音正版)
4大老龟(原音正版)
5小妈妈(原音正版)
6和月亮对话(原音正版)
7蓝飘带,黄飘带(原音正版)
8为了人间月常圆(原音正版)
B
1小龙人之歌(OK版,原音伴奏)
2我是一条小青龙(OK版,原音伴奏)
3为了妈妈(OK版,原音伴奏)
4大老龟(OK版,原音伴奏)
5小妈妈(OK版,原音伴奏)
6欢乐的小鸟(OK版,原音伴奏)
7我们的世界(插曲七,扬扬同唱)
8我们的梦(童声合唱)
9我是一条小青龙(伴奏带)
10小龙人之歌(伴奏带)
链接:
游客,如果您要查看本帖隐藏内容请回复
楼主热帖
回复

使用道具 举报

这里是快捷回复,赶紧试试哦: 感谢 支持 不错 无奈 一般 生气 回帖 路过 顶帖
您需要登录后才可以回帖 登录 | 立即注册

本版积分规则

QQ|Archiver|手机版|小黑屋|懒猫音乐论坛 ( 滇ICP备2022007195号 )|网站地图

GMT+8, 2022-11-27 20:53 , Processed in 1.447258 second(s), 33 queries , Gzip On.

Powered by Discuz! X3.4

Copyright © 2001-2020, Tencent Cloud.

快速回复 返回顶部 返回列表