懒猫音乐论坛

 找回密码
 立即注册
搜索
热搜: 活动 交友 discuz
查看: 52|回复: 2

(怀旧经典)群星 - 情深深雨蒙蒙音乐全纪录(2001)(WAV+CUE) 百度云

[复制链接]

43万

主题

43万

帖子

130万

积分

管理员

Rank: 9Rank: 9Rank: 9

积分
1303721
猫币
16 枚
金币
870118 枚
贡献
0 枚
发表于 2022-11-25 17:51:24 | 显示全部楼层 |阅读模式
下载及VIP会员说明:
1、请直接购买VIP会员全站资源无限制下载,不限制下载次数!
2、本站无免费资源,只有VIP会员可全免费下载!(点此24小时自助开通会员!)
3、有任何问题可点此回帖,管理员会及时处理!
4、VIP加入QQ会员群及微信会员群(年费及以上会员可联系客服加入会员群!)
专辑:情深深雨蒙蒙音乐全纪录
歌手:群星
语言:国语
唱片公司:可人唱片

专辑为自购,压缩包有封面,碟片的图片。

压缩包含了八首MTV

提及的人名已做删除,完整数据请见压缩包文件。


uhyde1uozlz.jpg

(怀旧经典)群星 - 情深深雨蒙蒙音乐全纪录(2001)(WAV+CUE) 百度云 情深深雨蒙蒙,怀旧经典,百度云,纪录,百度, 5419


oz0bdkgjsxw.jpg

(怀旧经典)群星 - 情深深雨蒙蒙音乐全纪录(2001)(WAV+CUE) 百度云 情深深雨蒙蒙,怀旧经典,百度云,纪录,百度, 151


ied5e1s4nnp.jpg

(怀旧经典)群星 - 情深深雨蒙蒙音乐全纪录(2001)(WAV+CUE) 百度云 情深深雨蒙蒙,怀旧经典,百度云,纪录,百度, 9860



专辑介绍:
《情深深雨濛濛音乐全纪录》是台湾作家琼瑶的电视剧作品《情深深雨濛濛》的原声带专辑,原声带由2张CD组成,其中收录电视剧主角古巨基演唱的主题曲和插曲,同时也收录了很多电视剧中的配乐。主题曲及部分插曲由徐嘉良、尤景仰、左宏元等人创作,另一部分插曲则由三、四十年代上海时代曲改编。2001年由可人唱片发行。


专辑曲目:
CD1:
01. 情深深雨濛濛(片头曲)
02. 好想好想(片尾曲/古巨基)
03. 小冤家
04. 离别的车站(片尾曲)
05. 不由自主(片尾曲)
06. 自从离别后
07. 新兰花草
08. 满场飞圆舞曲
09. 烟雨濛濛(片尾曲)
10. 情深深雨濛濛(大型管弦乐团改编曲)
11. 离别的车站(小型管弦乐曲)
12. 情深深雨濛濛(双提琴)
13. 自从离别后(小提琴)
14. 船(苗铃齐奏 MELODY)



CD2:
01 - 烟雨濛濛(片尾曲/古巨基)
02 - 好想好想
03 - 船
04 - 偶然
05 - 雨中的故事
06 - 假正经(CUTIE)
07 - 夜上海(CUTIE)
08 - 毛毛雨(CUTIE)
09 - 往事难忘(赵薇)
10 - 好想好想(小提琴)
11 - 烟雨濛濛(大提琴)
12 - 不由自主(小提琴&大提琴)
13 - 烟雨濛濛(人声曲)
14 - 雨中的故事(大提琴Free)




CD1:
Exact Audio Copy V1.3 from 2. September 2016
EAC 抓取日志文件从24. 一月 2018, 9:31
/ 情深深雨蒙蒙音乐全纪录1
使用驱动器  :ASUS    SDRW-08D2S-U   Adapter: 1  ID: 0
读取模式      : 可靠Secure
使用精确流     : 是
清空音频缓存    : 是
使用 C2 指示器 : 否
读取偏移校正:               : 0
读取 Lead-In 和 Lead-Out : 否
用静音填充抓取中丢失偏移的采样       : 是
去除首尾静音块               : 否
在CRC 计算中使用了空样本       : 是
已用接口                  : Win NT 及 2000 本地 Win32 接口
所用输出模式: : 内部 WAV 函数
样本格式    : 44.100 Hz; 16 Bit; 立体声

已抓取 CD 的 TOC
     音轨 |    起始    |    长度    |  起始扇区  |  结束扇区  
    --------------------------------------------
      1 |  0:00.00 |  4:47.41 |      0 |  21565
      2 |  4:47.41 |  3:38.40 |  21566 |  37955
      3 |  8:26.06 |  2:42.00 |  37956 |  50105
      4 | 11:08.06 |  6:01.18 |  50106 |  77198
      5 | 17:09.24 |  4:40.10 |  77199 |  98208
      6 | 21:49.34 |  4:34.40 |  98209 | 118798
      7 | 26:23.74 |  3:08.53 | 118799 | 132951
      8 | 29:32.52 |  2:36.13 | 132952 | 144664
      9 | 32:08.65 |  4:04.43 | 144665 | 163007
     10 | 36:13.33 |  4:34.06 | 163008 | 183563
     11 | 40:47.39 |  5:55.44 | 183564 | 210232
     12 | 46:43.08 |  4:45.19 | 210233 | 231626
     13 | 51:28.27 |  4:24.08 | 231627 | 251434
     14 | 55:52.35 |  1:29.69 | 251435 | 258178

范围状态及错误
已选择范围
     文件名 C:\Users\磊.000\Desktop\ - 情深深雨蒙蒙音乐全纪录1.wav
     峰值电平 100.0 %
     抓取速度 4.9 X
     范围质量 100.0 %
     复制 CRC 84228032
     复制成功
没有错误发生
状态报告结尾
==== 记录校验日志 E5A00756B5B2B5AE3B2FA4A48BF077C31F7C6C5B7599585F56D3B99CCE3AA1D5 ====





CD2:
Exact Audio Copy V1.3 from 2. September 2016
EAC 抓取日志文件从24. 一月 2018, 9:52
/ 情深深雨蒙蒙音乐全纪录2
使用驱动器  :ASUS    SDRW-08D2S-U   Adapter: 1  ID: 0
读取模式      : 可靠Secure
使用精确流     : 是
清空音频缓存    : 是
使用 C2 指示器 : 否
读取偏移校正:               : 0
读取 Lead-In 和 Lead-Out : 否
用静音填充抓取中丢失偏移的采样       : 是
去除首尾静音块               : 否
在CRC 计算中使用了空样本       : 是
已用接口                  : Win NT 及 2000 本地 Win32 接口
所用输出模式: : 内部 WAV 函数
样本格式    : 44.100 Hz; 16 Bit; 立体声

已抓取 CD 的 TOC
     音轨 |    起始    |    长度    |  起始扇区  |  结束扇区  
    --------------------------------------------
      1 |  0:00.00 |  4:05.18 |      0 |  18392
      2 |  4:05.18 |  3:38.31 |  18393 |  34773
      3 |  7:43.49 |  2:29.07 |  34774 |  45955
      4 | 10:12.56 |  2:56.18 |  45956 |  59173
      5 | 13:08.74 |  4:05.09 |  59174 |  77557
      6 | 17:14.08 |  2:54.73 |  77558 |  90680
      7 | 20:09.06 |  3:00.59 |  90681 | 104239
      8 | 23:09.65 |  4:34.48 | 104240 | 124837
      9 | 27:44.38 |  3:55.37 | 124838 | 142499
     10 | 31:40.00 |  3:37.41 | 142500 | 158815
     11 | 35:17.41 |  2:02.33 | 158816 | 167998
     12 | 37:19.74 |  4:43.62 | 167999 | 189285
     13 | 42:03.61 |  4:03.63 | 189286 | 207573
     14 | 46:07.49 |  2:36.65 | 207574 | 219338

范围状态及错误
已选择范围
     文件名 C:\Users\磊.000\Desktop\ - 情深深雨蒙蒙音乐全纪录2.wav
     峰值电平 100.0 %
     抓取速度 4.7 X
     范围质量 100.0 %
     复制 CRC 0735B0BB
     复制成功
没有错误发生
状态报告结尾
==== 记录校验日志 CCB91D6AD7EB7E4D11C9C6284DE8C10A88774C604BB5DC3B87FC3EC2CFD56791 ====




试听曲目:好想好想
https://link.hhtjim.com/163/87111.mp3



链接:https://pan.baidu.com/s/1scvQHpHRVJSpeof6-Xwd2w
游客,如果您要查看本帖隐藏内容请回复
楼主热帖
回复

使用道具 举报

0

主题

186

帖子

422

积分

永久VIP会员

Rank: 10Rank: 10Rank: 10

积分
422
猫币
0 枚
金币
236 枚
贡献
0 枚
发表于 2022-11-27 11:59:28 | 显示全部楼层
响应国家净网行动,会员回帖内容隐藏不可见!
回复

使用道具 举报

0

主题

835

帖子

1812

积分

永久VIP会员

Rank: 10Rank: 10Rank: 10

积分
1812
猫币
0 枚
金币
977 枚
贡献
0 枚
发表于 2022-11-29 21:01:15 | 显示全部楼层
响应国家净网行动,会员回帖内容隐藏不可见!
回复

使用道具 举报

这里是快捷回复,赶紧试试哦: 感谢 支持 不错 无奈 一般 生气 回帖 路过 顶帖
您需要登录后才可以回帖 登录 | 立即注册

本版积分规则

Archiver|手机版|小黑屋|懒猫音乐论坛 ( 滇ICP备2022007195号 )|网站地图

GMT+8, 2023-1-31 11:56 , Processed in 2.644878 second(s), 33 queries , Gzip On.

Powered by Discuz! X3.4

Copyright © 2001-2020, Tencent Cloud.

快速回复 返回顶部 返回列表