懒猫音乐论坛

 找回密码
 立即注册
搜索
热搜: 活动 交友 discuz
查看: 61|回复: 2

(怀旧经典)群星 - 仙剑奇侠传 电视原声带(2005)(WAV+CUE) 百度云

[复制链接]

43万

主题

43万

帖子

130万

积分

管理员

Rank: 9Rank: 9Rank: 9

积分
1303721
猫币
16 枚
金币
870118 枚
贡献
0 枚
发表于 2022-11-25 18:02:57 | 显示全部楼层 |阅读模式
下载及VIP会员说明:
1、请直接购买VIP会员全站资源无限制下载,不限制下载次数!
2、本站无免费资源,只有VIP会员可全免费下载!(点此24小时自助开通会员!)
3、有任何问题可点此回帖,管理员会及时处理!
4、VIP加入QQ会员群及微信会员群(年费及以上会员可联系客服加入会员群!)
专辑:仙剑奇侠传 电视原声带
歌手:群星
语言:国语
唱片公司:华研国际

专辑为自购,压缩包有封面,碟片的图片。

fbmxtjoryye.jpg

(怀旧经典)群星 - 仙剑奇侠传 电视原声带(2005)(WAV+CUE) 百度云 电视原声带,仙剑奇侠传,电视原声,怀旧经典,仙剑奇侠, 9699


fcnevimmz34.jpg

(怀旧经典)群星 - 仙剑奇侠传 电视原声带(2005)(WAV+CUE) 百度云 电视原声带,仙剑奇侠传,电视原声,怀旧经典,仙剑奇侠, 3866


j5dsey3um3m.jpg

(怀旧经典)群星 - 仙剑奇侠传 电视原声带(2005)(WAV+CUE) 百度云 电视原声带,仙剑奇侠传,电视原声,怀旧经典,仙剑奇侠, 8456



专辑介绍:
经典电玩游戏-仙剑奇侠传 首次搬上萤幕 一关又一关,穿梭于人间、妖域、天道、时空的历险…… 最轰动的电玩游戏 由大宇资讯制作 轰动两岸三地华人世界历久不衰的经典武侠电玩 最精彩的八点档大戏 由唐人电影出资拍摄 名导演李国立亲自操刀 大卡司大场景 电脑特效比照电影规格制作 势必席卷寒假期间所有青少年 最好听的电视原声带 由华研唱片制作发行 量声打造仙剑奇侠传人物故事 独家珍藏仙剑奇侠传剧照名信卡一组 特别撷录戏中感人誓言 精彩好歌全在仙剑奇侠传 杀破狼-仙剑奇侠传主题曲 一波又一波的高潮,JS带领你走向仙剑的时空冒险 终于明白-仙剑奇侠传片尾曲,动力火车情深款款,娓娓道尽仙剑中爱情的无奈与不舍 逍遥叹-仙剑奇侠传插曲,最具潜力新生带偶像胡歌初试啼声,唱出李逍遥情深义重的温柔 一直很安静-仙剑奇侠传插曲,寂寞DJ阿桑温暖诠释,爱情里的三角课题,你的爱是否一直很安静 花与剑-仙剑奇侠传插曲,陈忠义谱曲、陈绮萱填词,JS兄妹联袂打造花与剑的完美乐章 六月的雨-仙剑奇侠传插曲,胡歌深情演唱,逍遥为爱等待的真情真爱。


专辑曲目:
1. 永恒的记忆 (杀破狼演奏曲)
2. 终于明白
3. 逍遥叹
4. 杀破狼
5. 花与剑
6. 一直很安静
7. 六月的雨
8. 红色蒲公英 (终于明白演奏曲)
9. 莫失莫忘 (逍遥叹演奏曲)
10. 让爱 (六月的雨演奏曲)
11. 君莫悲 (逍遥叹演奏曲)
12. 无悔光阴 (六月的雨演奏曲)
13. 继续奋战 (杀破狼演奏曲)



Exact Audio Copy V1.6 from 23. October 2020
EAC 抓取日志文件从25. 十一月 2022, 14:10
群星 / 仙剑奇侠传 电视原声带
使用驱动器  :ASUS    SDRW-08D1S-U   Adapter: 1  ID: 0
读取模式      : 可靠Secure
使用精确流     : 是
清空音频缓存    : 是
使用 C2 指示器 : 否
读取偏移校正:               : 0
读取 Lead-In 和 Lead-Out : 否
用静音填充抓取中丢失偏移的采样       : 是
去除首尾静音块               : 否
在CRC 计算中使用了空样本       : 是
已用接口                  : Win NT 及 2000 本地 Win32 接口
所用输出模式: : 内部 WAV 函数
样本格式    : 44.100 Hz; 16 Bit; 立体声

已抓取 CD 的 TOC
     音轨 |    起始    |    长度    |  起始扇区  |  结束扇区  
    --------------------------------------------
      1 |  0:00.00 |  4:16.69 |      0 |  19268
      2 |  4:16.69 |  4:29.59 |  19269 |  39502
      3 |  8:46.53 |  5:15.39 |  39503 |  63166
      4 | 14:02.17 |  4:42.09 |  63167 |  84325
      5 | 18:44.26 |  4:09.49 |  84326 | 103049
      6 | 22:54.00 |  4:12.70 | 103050 | 122019
      7 | 27:06.70 |  3:49.72 | 122020 | 139266
      8 | 30:56.67 |  3:00.65 | 139267 | 152831
      9 | 33:57.57 |  4:00.54 | 152832 | 170885
     10 | 37:58.36 |  4:08.56 | 170886 | 189541
     11 | 42:07.17 |  3:36.58 | 189542 | 205799
     12 | 45:44.00 |  3:30.73 | 205800 | 221622
     13 | 49:14.73 |  4:15.34 | 221623 | 240781

范围状态及错误
已选择范围
     文件名 D:\CD 抓取\群星 - 仙剑奇侠传 电视原声带.wav
     峰值电平 100.0 %
     抓取速度 4.5 X
     范围质量 99.9 %
     复制 CRC 3C20C945
     复制成功
没有错误发生
状态报告结尾
==== 记录校验日志 D6698DD0B762AA12076CE50199D09CC67108C8DB2EA5609E60F099D3B040BE0E ====




试听曲目:杀破狼


链接:https://pan.baidu.com/s/1CibItsGay1T046uVnGnKNA
游客,如果您要查看本帖隐藏内容请回复
楼主热帖
回复

使用道具 举报

0

主题

835

帖子

1812

积分

永久VIP会员

Rank: 10Rank: 10Rank: 10

积分
1812
猫币
0 枚
金币
977 枚
贡献
0 枚
发表于 2022-11-29 20:59:01 | 显示全部楼层
响应国家净网行动,会员回帖内容隐藏不可见!
回复

使用道具 举报

1

主题

359

帖子

813

积分

永久VIP会员

Rank: 10Rank: 10Rank: 10

积分
813
猫币
0 枚
金币
454 枚
贡献
0 枚
发表于 2022-12-1 19:03:58 | 显示全部楼层
响应国家净网行动,会员回帖内容隐藏不可见!
回复

使用道具 举报

这里是快捷回复,赶紧试试哦: 感谢 支持 不错 无奈 一般 生气 回帖 路过 顶帖
您需要登录后才可以回帖 登录 | 立即注册

本版积分规则

Archiver|手机版|小黑屋|懒猫音乐论坛 ( 滇ICP备2022007195号 )|网站地图

GMT+8, 2023-1-31 10:50 , Processed in 3.018640 second(s), 33 queries , Gzip On.

Powered by Discuz! X3.4

Copyright © 2001-2020, Tencent Cloud.

快速回复 返回顶部 返回列表