懒猫音乐论坛

 找回密码
 立即注册
搜索
热搜: 活动 交友 discuz
查看: 70|回复: 4

(怀旧经典)群星 - 还珠格格音乐全记录(1999)(WAV+CUE) 百度云

[复制链接]

43万

主题

43万

帖子

130万

积分

管理员

Rank: 9Rank: 9Rank: 9

积分
1303721
猫币
16 枚
金币
870118 枚
贡献
0 枚
发表于 2022-11-25 17:36:27 | 显示全部楼层 |阅读模式
下载及VIP会员说明:
1、请直接购买VIP会员全站资源无限制下载,不限制下载次数!
2、本站无免费资源,只有VIP会员可全免费下载!(点此24小时自助开通会员!)
3、有任何问题可点此回帖,管理员会及时处理!
4、VIP加入QQ会员群及微信会员群(年费及以上会员可联系客服加入会员群!)
专辑:还珠格格音乐全记录
歌手:群星
语言:国语
唱片公司:可人唱片

专辑为自购,压缩包有封面,碟片的扫描图片。
该专辑为1CD+1VCD  压缩包包含了VCD三首MTV

提及的有些人名已做删除,完整数据请见压缩包文件。

behel14xel4.jpg

(怀旧经典)群星 - 还珠格格音乐全记录(1999)(WAV+CUE) 百度云 怀旧经典,还珠格格,百度云,百度,记录, 495


t5yw34iohv3.jpg

(怀旧经典)群星 - 还珠格格音乐全记录(1999)(WAV+CUE) 百度云 怀旧经典,还珠格格,百度云,百度,记录, 5341


4lmnfq0ypcu.jpg

(怀旧经典)群星 - 还珠格格音乐全记录(1999)(WAV+CUE) 百度云 怀旧经典,还珠格格,百度云,百度,记录, 671


hsrott3phug.jpg

(怀旧经典)群星 - 还珠格格音乐全记录(1999)(WAV+CUE) 百度云 怀旧经典,还珠格格,百度云,百度,记录, 5667


专辑介绍:
还珠格格 音乐全纪录 CD+VCD
林心如 周杰 真情对唱


专辑曲目:
01. 你是风儿我是沙 (周杰/林心如)
02. 梦里 (周杰/林心如)
03. 我们
04. 雨蝶 (林心如)
05. 自从有了你
06. 有一个姑娘
07. 不能和你分手
08. 当 (QTIE)
09. 今日天气好晴朗 (方琼)
10. 山水迢迢 (方琼)
11. 长相忆 (方琼)
12. 梦里 (笛子演奏版)
13. 我们 (Kala)
14. 你是风儿我是沙 (Kala)
15. 齿轮 (Kala)
16. 自从有了你 (Kala)
17. 真心不假 (笛子演奏版)



Exact Audio Copy V1.6 from 23. October 2020
EAC 抓取日志文件从25. 十一月 2022, 15:02
群星 / 还珠格格音乐全记录
使用驱动器  :ASUS    SDRW-08D1S-U   Adapter: 1  ID: 0
读取模式      : 可靠Secure
使用精确流     : 是
清空音频缓存    : 是
使用 C2 指示器 : 否
读取偏移校正:               : 0
读取 Lead-In 和 Lead-Out : 否
用静音填充抓取中丢失偏移的采样       : 是
去除首尾静音块               : 否
在CRC 计算中使用了空样本       : 是
已用接口                  : Win NT 及 2000 本地 Win32 接口
所用输出模式: : 内部 WAV 函数
样本格式    : 44.100 Hz; 16 Bit; 立体声

已抓取 CD 的 TOC
     音轨 |    起始    |    长度    |  起始扇区  |  结束扇区  
    --------------------------------------------
      1 |  0:00.00 |  4:43.57 |      0 |  21281
      2 |  4:43.57 |  4:54.05 |  21282 |  43336
      3 |  9:37.62 |  4:02.38 |  43337 |  61524
      4 | 13:40.25 |  3:42.72 |  61525 |  78246
      5 | 17:23.22 |  3:28.45 |  78247 |  93891
      6 | 20:51.67 |  3:35.20 |  93892 | 110036
      7 | 24:27.12 |  4:35.68 | 110037 | 130729
      8 | 29:03.05 |  4:49.35 | 130730 | 152439
      9 | 33:52.40 |  1:54.67 | 152440 | 161056
     10 | 35:47.32 |  3:02.13 | 161057 | 174719
     11 | 38:49.45 |  3:03.20 | 174720 | 188464
     12 | 41:52.65 |  4:37.55 | 188465 | 209294
     13 | 46:30.45 |  4:01.55 | 209295 | 227424
     14 | 50:32.25 |  4:37.42 | 227425 | 248241
     15 | 55:09.67 |  2:59.38 | 248242 | 261704
     16 | 58:09.30 |  3:27.50 | 261705 | 277279
     17 | 61:37.05 |  4:02.72 | 277280 | 295501

范围状态及错误
已选择范围
     文件名 D:\CD 抓取\群星 - 还珠格格音乐全记录.wav
     峰值电平 100.0 %
     抓取速度 4.9 X
     范围质量 100.0 %
     复制 CRC FCA5AF3E
     复制成功
没有错误发生
状态报告结尾
==== 记录校验日志 2347B6C24416EBFF346AE4F7802E7AD288A69635D65FFBE420FBF847C6AE9845 ====



试听曲目:你是风儿我是沙
https://link.hhtjim.com/163/5307096.mp4


链接:https://pan.baidu.com/s/1IWuSv2iOMHFIT_1O8sMUgA
游客,如果您要查看本帖隐藏内容请回复
楼主热帖
回复

使用道具 举报

1

主题

126

帖子

423

积分

永久VIP会员

Rank: 10Rank: 10Rank: 10

积分
423
猫币
0 枚
金币
297 枚
贡献
0 枚
发表于 2022-11-26 23:15:15 | 显示全部楼层
响应国家净网行动,会员回帖内容隐藏不可见!
回复

使用道具 举报

0

主题

835

帖子

1812

积分

永久VIP会员

Rank: 10Rank: 10Rank: 10

积分
1812
猫币
0 枚
金币
977 枚
贡献
0 枚
发表于 2022-11-29 21:01:56 | 显示全部楼层
响应国家净网行动,会员回帖内容隐藏不可见!
回复

使用道具 举报

1

主题

359

帖子

813

积分

永久VIP会员

Rank: 10Rank: 10Rank: 10

积分
813
猫币
0 枚
金币
454 枚
贡献
0 枚
发表于 2022-12-3 22:57:37 | 显示全部楼层
响应国家净网行动,会员回帖内容隐藏不可见!
回复

使用道具 举报

0

主题

219

帖子

702

积分

年费VIP会员

Rank: 9Rank: 9Rank: 9

积分
702
猫币
20 枚
金币
443 枚
贡献
0 枚
发表于 2022-12-29 20:53:46 | 显示全部楼层
响应国家净网行动,会员回帖内容隐藏不可见!
回复

使用道具 举报

这里是快捷回复,赶紧试试哦: 感谢 支持 不错 无奈 一般 生气 回帖 路过 顶帖
您需要登录后才可以回帖 登录 | 立即注册

本版积分规则

Archiver|手机版|小黑屋|懒猫音乐论坛 ( 滇ICP备2022007195号 )|网站地图

GMT+8, 2023-1-31 11:12 , Processed in 0.897426 second(s), 31 queries , Gzip On.

Powered by Discuz! X3.4

Copyright © 2001-2020, Tencent Cloud.

快速回复 返回顶部 返回列表