懒猫音乐论坛

 找回密码
 立即注册
搜索
热搜: 活动 交友 discuz
查看: 69|回复: 1

(怀旧经典)群星 - 仙剑奇侠传三 电视原声带(2009)(WAV+CUE) 百度云

[复制链接]

43万

主题

43万

帖子

130万

积分

管理员

Rank: 9Rank: 9Rank: 9

积分
1303721
猫币
16 枚
金币
870118 枚
贡献
0 枚
发表于 2022-11-25 18:13:18 | 显示全部楼层 |阅读模式
下载及VIP会员说明:
1、请直接购买VIP会员全站资源无限制下载,不限制下载次数!
2、本站无免费资源,只有VIP会员可全免费下载!(点此24小时自助开通会员!)
3、有任何问题可点此回帖,管理员会及时处理!
4、VIP加入QQ会员群及微信会员群(年费及以上会员可联系客服加入会员群!)
专辑:仙剑奇侠传 电视原声带
歌手:群星
语言:国语
唱片公司:金牌大风 Gold Typhoon

压缩包有封面,碟片的图片。

lnfufbr5ac5.jpg

(怀旧经典)群星 - 仙剑奇侠传三 电视原声带(2009)(WAV+CUE) 百度云 仙剑奇侠传三,仙剑奇侠传,电视原声带,电视原声,怀旧经典, 7189


n5rsxfay3ro.jpg

(怀旧经典)群星 - 仙剑奇侠传三 电视原声带(2009)(WAV+CUE) 百度云 仙剑奇侠传三,仙剑奇侠传,电视原声带,电视原声,怀旧经典, 3616


cso3huvk4qb.jpg

(怀旧经典)群星 - 仙剑奇侠传三 电视原声带(2009)(WAV+CUE) 百度云 仙剑奇侠传三,仙剑奇侠传,电视原声带,电视原声,怀旧经典, 3513



专辑介绍:
★ 风靡十余年 超人气电玩 最强热收视 奇情浪漫武侠剧
  《仙剑奇侠传》系列游戏,作为华人世界最受欢迎的超人气电子游戏,被誉为“代表中国游戏文化的一个里程碑”,风靡十余年而魅力更甚。前不久,刚推出《仙剑online》更是以急速在网游界蹿红,一度一号(游戏账号)难求。
  以其游戏的情节和故事而改编的电视连续剧《仙剑奇侠传》作为国内第一部由RPG游戏改编的电视剧,在当年创下了收视神话,掀起一阵“仙剑”热潮,也备受游戏玩家的肯定,原声带销量也同时创下惊人记录。
  2009年,《仙剑奇侠传三》作为《仙剑奇侠传》的续写,故事取自经典游戏《仙剑奇侠传三之问情篇》,由胡歌、霍建华、杨幂、唐嫣、刘诗诗、黄志玮、刘家辉、袁弘、刘锐、郭晓婷等人气偶像再度联袂演出。故事讲述了景天、雪见、龙葵、长卿、紫萱、重楼萱几个人的情爱纠葛,生离死别反复交织纠缠,雪见的离奇身世,紫萱不为人知的秘密,龙葵长久以来的心中愿望……伴随着人类与妖界死生存亡的争斗,而其实人的**,才是所有纷争的本源。
  还未开播就引发了仙剑迷的热烈讨论,期待度无限飚高,也为即将在6月底7月初的暑期档开播攒足了强大的人气和热度。势必将造就2009年最强热收视冠军!
  ★ 金牌大风 集结两岸三地 最完美坚强阵容 胡歌 吴雨霏 郑中基 张芸京 青鸟飞鱼 兄弟联 八首诚意歌曲×全六首配乐 打造最值得收藏的电视原声带
  一贯以绝佳的音乐品质得到市场和各界肯定的金牌大风音乐集团,此次打造《仙剑奇侠传三》原声带不仅倾尽全力,更利用集团的资源优势,集结两岸三地最完美坚强的音乐阵容——胡歌 吴雨霏 郑中基 张芸京 青鸟飞鱼 兄弟联。八首诚意歌曲×全六首配乐,无疑将成为2009年最好听、最值得收藏的电视原声带。为更好的诠释动感时尚的片头曲《生生世世爱》,特别邀请香港人气女歌手吴雨霏Kary来演绎。吴雨霏Kary时尚的气质和独特的声线与旋律十分合称,配上剧集画面更是恰到好处到令人拍桉叫绝。
  而在剧中饰演景天的男主角胡歌,更是原声带不可或缺的男主角,由他演唱的抒情片尾曲《忘记时间》,从歌词到旋律,都不由得让人想起由布拉德 皮特(Brad Pitt)主演的好莱坞大片《返老还童》(或译本杰明 巴顿奇事The Curious Case of Benjamin Button)。胡歌也透露在录音的时候,的确也不自觉地在心里揣摩起电影里的情绪。这一奇妙的联接,也让整首歌听来有着说不尽的情愫,十分耐听感人。
  原声带里有一首《光棍》,则是特别根据剧中人物“景天”的性格和情节而特别量身定做,当然这首歌是非饰演“景天”的胡歌莫属。这是胡歌第一次尝试活泼逗趣的风格,他表示以前自己也喜欢在K歌的时候唱过别的歌手类似的歌曲,这次录制自己的歌觉得非常新鲜。而胡歌所富有的表现力,也令得这首《光棍》在原声带里特别出彩。
  作为胡歌的师弟师妹的青鸟飞鱼和张芸京更是二话不说,为原声带加盟助阵,分别献声一首插曲——青鸟飞鱼的深情插曲《此生不换》和张芸京的倔强插曲《偏爱》,都亦是不可多得的佳作。值得一提的是,青鸟飞鱼的虎虎也同时在《仙剑奇侠传三》电视剧里饰演了一个角色“必平”,剧中是“景天”(胡歌饰演)的好兄弟,原声带里是胡歌的小师弟,和七零一起表现更是卖力抢眼,一首《此生不换》唱得荡气回肠。而在台湾话题不断、人气高涨的超偶冠军张芸京,刚在台湾发片就拿下亮眼成绩,此次也义不容辞助阵原声带,一首《偏爱》唱得实力尽显。
  诠释情歌最拿手的郑中基今次也亲自出马,为原声带特别献唱的《答应不爱你》,经典堪比《别爱我》、《绝口不提爱你》而另一首插曲《你是我一首唱不完的歌》则悠扬地哼唱出澹澹的想念和哀愁,再加上兄弟联的热血插曲《我做我的王》更是让原声带的聆听性更多样而丰富。
  除了歌手倾情演绎的诚意歌曲以外,原声带还贴心收录了由麦振鸿谱写的,电视剧全部的6首配乐,可谓诚意满满、毫无保留,让你一次获得最完整的收藏。



专辑曲目:
01生生世世爱 吴雨霏(片头曲)
02忘记时间 胡歌(片尾曲)
03此生不换 青鸟飞鱼(插曲)
04光棍 胡歌(插曲)
05答应不爱你 郑中基(插曲)
06偏爱 张芸京(插曲)
07我做我的王 兄弟联(插曲)
08你是我一首唱不完的歌 郭蘅祈(插曲)
09降魔剑(配乐)
10雪见—落入凡尘(配乐)
11共伴闯天涯(配乐)
12景天—护甲(配乐)
13长卿—众生平等(配乐)
14龙葵—千年等待(配乐)




Exact Audio Copy V1.6 from 23. October 2020
EAC 抓取日志文件从25. 十一月 2022, 13:36
群星 / 仙剑奇侠传三 电视原声带
使用驱动器  :ASUS    SDRW-08D1S-U   Adapter: 1  ID: 0
读取模式      : 可靠Secure
使用精确流     : 是
清空音频缓存    : 是
使用 C2 指示器 : 否
读取偏移校正:               : 0
读取 Lead-In 和 Lead-Out : 否
用静音填充抓取中丢失偏移的采样       : 是
去除首尾静音块               : 否
在CRC 计算中使用了空样本       : 是
已用接口                  : Win NT 及 2000 本地 Win32 接口
所用输出模式: : 内部 WAV 函数
样本格式    : 44.100 Hz; 16 Bit; 立体声

已抓取 CD 的 TOC
     音轨 |    起始    |    长度    |  起始扇区  |  结束扇区  
    --------------------------------------------
      1 |  0:00.00 |  4:45.19 |      0 |  21393
      2 |  4:45.19 |  4:34.09 |  21394 |  41952
      3 |  9:19.28 |  4:27.61 |  41953 |  62038
      4 | 13:47.14 |  2:45.17 |  62039 |  74430
      5 | 16:32.31 |  3:25.57 |  74431 |  89862
      6 | 19:58.13 |  3:34.67 |  89863 | 105979
      7 | 23:33.05 |  4:40.10 | 105980 | 126989
      8 | 28:13.15 |  4:31.44 | 126990 | 147358
      9 | 32:44.59 |  2:59.69 | 147359 | 160852
     10 | 35:44.53 |  4:50.06 | 160853 | 182608
     11 | 40:34.59 |  3:24.11 | 182609 | 197919
     12 | 43:58.70 |  3:36.19 | 197920 | 214138
     13 | 47:35.14 |  2:52.31 | 214139 | 227069
     14 | 50:27.45 |  2:57.02 | 227070 | 240346

范围状态及错误
已选择范围
     文件名 D:\CD 抓取\群星 - 仙剑奇侠传三 电视原声带.wav
     峰值电平 100.0 %
     抓取速度 4.5 X
     范围质量 100.0 %
     复制 CRC 30422DA8
     复制成功
没有错误发生
状态报告结尾
==== 记录校验日志 94CB3771844721F9B9AD635AF57445130D16F42EDC3872510140BC5E96972D66 ====




试听曲目:生生世世爱
https://link.hhtjim.com/163/58718.mp4



链接:https://pan.baidu.com/s/1_GC9t2C8x0ArUJYTYXMKnw
游客,如果您要查看本帖隐藏内容请回复
楼主热帖
回复

使用道具 举报

0

主题

835

帖子

1812

积分

永久VIP会员

Rank: 10Rank: 10Rank: 10

积分
1812
猫币
0 枚
金币
977 枚
贡献
0 枚
发表于 2022-11-29 20:59:51 | 显示全部楼层
响应国家净网行动,会员回帖内容隐藏不可见!
回复

使用道具 举报

这里是快捷回复,赶紧试试哦: 感谢 支持 不错 无奈 一般 生气 回帖 路过 顶帖
您需要登录后才可以回帖 登录 | 立即注册

本版积分规则

Archiver|手机版|小黑屋|懒猫音乐论坛 ( 滇ICP备2022007195号 )|网站地图

GMT+8, 2023-1-31 11:30 , Processed in 1.041639 second(s), 33 queries , Gzip On.

Powered by Discuz! X3.4

Copyright © 2001-2020, Tencent Cloud.

快速回复 返回顶部 返回列表